<?xml version="1.0" standalone="no"?>
<!DOCTYPE svg PUBLIC "-//W3C//DTD SVG 1.1//EN" "http://www.w3.org/Graphics/SVG/1.1/DTD/svg11.dtd" >
<svg xmlns="http://www.w3.org/2000/svg">
<metadata>Generated by IcoMoon</metadata>
<defs>
<font id="icomoon" horiz-adv-x="1024">
<font-face units-per-em="1024" ascent="960" descent="-64" />
<missing-glyph horiz-adv-x="1024" />
<glyph unicode="&#x20;" horiz-adv-x="512" d="" />
<glyph unicode="&#xe900;" glyph-name="add-user" d="M575.216 426.971l-14.628 6.792 12.539 10.449c26.645 23.51 48.065 51.723 62.694 84.115 14.628 31.869 22.465 67.396 22.465 102.4 0 66.873-26.122 130.090-73.665 177.11-47.543 47.543-110.237 73.665-177.11 73.665s-130.090-26.122-177.633-73.665-73.142-110.237-73.142-177.11c0-35.004 7.314-70.531 21.942-102.4s36.572-61.126 63.216-84.115l12.016-10.449-14.628-6.792c-71.576-32.392-131.658-84.637-174.498-150.465-42.318-65.828-64.784-142.106-64.784-220.473 0-10.971 4.18-21.942 12.016-29.779 15.673-15.673 43.363-15.673 59.037 0 7.837 7.837 12.539 18.808 12.539 29.779 0 86.727 33.437 167.706 94.563 228.833s142.629 95.086 229.355 95.086 167.706-33.959 228.833-95.086c61.126-61.126 95.086-142.106 95.086-228.833 0-10.971 4.18-21.942 12.016-29.779 15.673-15.673 43.363-15.673 59.037 0 7.837 7.837 12.539 18.808 12.539 29.779 0 78.367-22.988 154.645-65.306 220.473-42.841 65.828-102.923 118.073-174.498 150.465zM407.511 463.543c-33.437 0-65.306 9.926-92.996 28.212s-49.111 44.408-61.649 75.233c-12.539 30.302-16.196 63.739-9.404 96.131 6.269 32.915 22.465 62.171 45.453 85.681 23.51 23.51 53.289 39.184 85.681 45.975 32.915 6.269 66.351 3.135 96.653-9.404 30.824-13.061 56.425-33.959 75.233-61.649 18.285-27.69 28.212-59.559 28.212-92.996 0-44.931-17.763-86.727-49.111-118.073-31.347-31.869-73.665-49.111-118.073-49.111zM1011.461 503.772c-7.837 7.837-18.285 12.016-29.258 12.016h-62.694v62.694c0 10.971-4.702 21.942-12.539 29.779-15.673 15.673-43.363 15.673-59.037 0-7.837-7.837-12.016-18.808-12.016-29.779v-62.694h-62.694c-11.494 0-21.942-4.18-29.779-12.016s-12.016-18.808-12.016-29.779 4.18-21.942 12.016-29.779c7.837-7.837 18.808-12.016 29.779-12.016h62.694v-62.694c0-10.971 4.18-21.942 12.016-29.779 15.673-15.151 43.363-15.151 59.037 0 7.837 7.837 12.539 18.808 12.539 29.779v62.694h62.694c10.971 0 21.421 4.18 29.258 12.016s12.539 18.808 12.539 29.779-4.702 21.942-12.539 29.779z" />
<glyph unicode="&#xe901;" glyph-name="check" d="M340.42 99.033c-13.7 0-27.4 5.219-37.839 15.005l-285.097 266.83c-22.181 20.876-23.486 56.106-2.61 78.287s56.106 23.486 78.287 2.61l247.258-231.6 590.417 551.926c22.181 20.876 57.411 19.572 78.287-2.61s19.572-57.411-2.61-78.287l-627.604-587.155c-10.438-9.786-24.138-15.005-37.839-15.005z" />
<glyph unicode="&#xe902;" glyph-name="gear" d="M512 264.99c-100.889 0-182.771 81.881-182.771 182.771s81.881 182.771 182.771 182.771 182.771-81.881 182.771-182.771-81.881-182.771-182.771-182.771zM512 557.423c-60.436 0-109.662-49.227-109.662-109.662s49.227-109.662 109.662-109.662 109.662 49.227 109.662 109.662-49.227 109.662-109.662 109.662zM548.554-63.999h-73.108c-60.436 0-109.662 49.227-109.662 109.662v22.419c0 26.319-13.647 50.201-36.554 63.36s-50.201 13.16-73.108 0l-19.496-11.21c-25.344-14.622-55.075-18.521-83.344-11.21-28.269 7.798-52.15 25.832-66.772 51.176l-36.554 63.36c-30.218 52.638-12.184 119.411 39.966 149.628l19.008 11.21c22.907 13.16 36.554 37.041 36.554 63.36s-13.647 50.201-36.554 63.36l-19.008 11.21c-51.664 30.218-69.697 97.478-39.478 149.628l36.554 63.36c14.622 25.344 38.016 43.378 66.772 51.176 28.269 7.311 58 3.899 83.344-10.723l19.496-11.21c22.907-13.16 50.201-13.16 73.108 0s36.554 37.041 36.554 63.36v22.419c0 60.436 49.227 109.662 109.662 109.662h73.108c60.436 0 109.662-49.227 109.662-109.662v-22.419c0-26.319 13.647-50.201 36.554-63.36s50.201-13.16 73.108 0l19.008 11.21c52.638 30.218 119.411 12.184 149.628-39.966l36.554-63.36c14.622-25.344 18.521-55.075 11.21-83.344s-25.832-52.15-51.176-66.772l-19.008-11.21c-22.907-13.16-36.554-37.041-36.554-63.36s13.647-50.201 36.554-63.36l19.496-11.21c52.15-30.218 70.184-97.478 39.966-149.628l-36.554-63.36c-30.218-52.15-97.478-70.672-149.628-39.966l-19.008 11.21c-22.907 13.16-50.201 13.16-73.108 0s-36.554-37.041-36.554-63.36v-22.419c0-60.436-49.227-109.662-109.662-109.662zM292.675 214.301c25.344 0 50.201-6.824 73.108-19.983 45.814-26.319 73.108-73.595 73.108-126.721v-22.419c0-19.983 16.571-36.554 36.554-36.554h73.108c19.983 0 36.554 16.571 36.554 36.554v22.419c0 52.638 27.294 100.403 73.108 126.721s100.403 26.319 146.217 0l19.008-11.21c17.546-10.235 39.966-3.899 49.714 13.16l36.554 63.36c4.874 8.286 6.336 18.521 3.899 27.781s-8.773 17.059-17.059 22.419l-19.496 11.21c-45.814 26.319-73.108 73.595-73.108 126.721s27.294 100.403 73.108 126.721l19.008 11.21c8.286 4.874 14.622 12.672 17.059 22.419s1.462 19.496-3.899 27.781v0s-36.554 63.36-36.554 63.36c-10.235 17.546-32.655 23.395-50.201 13.16l-19.008-11.21c-45.814-26.319-100.403-26.319-146.217 0s-73.108 73.595-73.108 126.721v22.419c0 19.983-16.571 36.554-36.554 36.554h-73.108c-19.983 0-36.554-16.571-36.554-36.554v-22.419c0-52.638-27.294-100.403-73.108-126.721s-100.403-26.319-146.217 0l-19.496 11.21c-8.286 4.874-18.521 6.336-27.781 3.411-9.261-2.437-17.059-8.773-21.933-17.059l-36.554-63.36c-10.235-17.546-3.899-39.966 13.16-49.714l19.008-11.21c45.814-26.319 73.108-73.595 73.108-126.721s-27.294-100.403-73.108-126.721l-19.008-11.21c-17.546-10.235-23.395-32.655-13.647-49.714l36.554-63.36c4.874-8.286 12.672-14.622 22.419-17.059 9.261-2.437 19.496-0.975 27.781 3.899l19.496 11.21c22.907 13.16 47.764 19.983 73.108 19.983z" />
<glyph unicode="&#xe903;" glyph-name="logout" horiz-adv-x="819" d="M563.2-64h-409.6c-84.48 0-153.6 69.12-153.6 153.6v716.8c0 84.48 69.12 153.6 153.6 153.6h409.6c28.16 0 51.2-23.040 51.2-51.2s-23.040-51.2-51.2-51.2h-409.6c-28.16 0-51.2-23.040-51.2-51.2v-716.8c0-28.16 23.040-51.2 51.2-51.2h409.6c28.16 0 51.2-23.040 51.2-51.2s-23.040-51.2-51.2-51.2zM563.2 192c-13.312 0-26.112 5.12-36.352 14.848-19.968 19.968-19.968 52.224 0 72.192l117.248 117.248h-388.608c-28.16 0-51.2 23.040-51.2 51.2s23.040 51.2 51.2 51.2h388.608l-117.248 117.248c-19.968 19.968-19.968 52.224 0 72.192s52.224 19.968 72.192 0l204.8-204.8c5.12-5.12 8.704-10.752 11.264-16.896s4.096-12.288 4.096-19.456v0c0-7.168-1.536-13.824-4.096-19.456-2.56-6.144-6.144-11.776-11.264-16.896l-204.8-204.8c-10.24-10.24-23.040-14.848-36.352-14.848z" />
<glyph unicode="&#xe904;" glyph-name="orders" d="M722.051 41.026h-262.564c-21.53 0-39.384 17.854-39.384 39.384s17.854 39.384 39.384 39.384h262.564c21.53 0 39.384-17.854 39.384-39.384s-17.854-39.384-39.384-39.384zM196.923 41.026h-105.026c-50.412 0-91.898 41.485-91.898 91.898v105.026c0 50.412 41.485 91.898 91.898 91.898h105.026c50.412 0 91.898-41.485 91.898-91.898v-105.026c0-50.412-41.485-91.898-91.898-91.898zM91.898 251.077c-7.352 0-13.128-5.776-13.128-13.128v-105.026c0-7.352 5.776-13.128 13.128-13.128h105.026c7.352 0 13.128 5.776 13.128 13.128v105.026c0 7.352-5.776 13.128-13.128 13.128h-105.026zM984.616 251.077h-525.128c-21.53 0-39.384 17.854-39.384 39.384s17.854 39.384 39.384 39.384h525.128c21.53 0 39.384-17.854 39.384-39.384s-17.854-39.384-39.384-39.384zM722.051 566.154h-262.564c-21.53 0-39.384 17.854-39.384 39.384s17.854 39.384 39.384 39.384h262.564c21.53 0 39.384-17.854 39.384-39.384s-17.854-39.384-39.384-39.384zM196.923 566.154h-105.026c-50.412 0-91.898 41.485-91.898 91.898v105.026c0 50.412 41.485 91.898 91.898 91.898h105.026c50.412 0 91.898-41.485 91.898-91.898v-105.026c0-50.412-41.485-91.898-91.898-91.898zM91.898 776.205c-7.352 0-13.128-5.776-13.128-13.128v-105.026c0-7.352 5.776-13.128 13.128-13.128h105.026c7.352 0 13.128 5.776 13.128 13.128v105.026c0 7.352-5.776 13.128-13.128 13.128h-105.026zM984.616 776.205h-525.128c-21.53 0-39.384 17.854-39.384 39.384s17.854 39.384 39.384 39.384h525.128c21.53 0 39.384-17.854 39.384-39.384s-17.854-39.384-39.384-39.384z" />
<glyph unicode="&#xe905;" glyph-name="star" d="M1022.997 559.892l-2.51 9.539c-4.017 12.551-11.547 23.596-21.588 32.632-10.041 8.534-22.090 15.061-35.645 18.073l-250.518 56.229-132.037 220.396c-7.029 11.547-17.069 21.588-28.617 28.114-24.098 13.556-55.225 13.556-79.322 0-12.049-6.527-22.090-16.568-29.118-28.114l-131.535-219.391-250.518-56.229c-13.053-3.012-25.604-9.037-35.645-18.073s-17.571-20.081-21.588-32.632c-4.519-12.551-5.522-26.608-3.012-39.661 2.51-12.551 8.032-24.6 16.568-34.139l173.204-194.289-24.098-256.040c-1.507-13.556 0.502-27.11 6.024-39.661s14.559-23.093 26.106-31.127c13.053-9.037 28.617-14.057 45.183-14.057h8.032c8.032 1.004 16.066 3.012 24.098 6.527l235.457 101.412 235.958-101.915c10.041-4.519 20.583-6.527 31.629-6.527 2.51 0 5.020 0 7.531 0 12.049 1.004 23.596 5.020 33.637 11.045v0s3.514 2.008 3.514 2.008c11.547 8.032 20.583 18.576 26.608 31.127s8.534 26.106 7.029 39.661l-24.098 256.543 171.196 191.277 6.024 8.032c5.522 8.534 9.539 18.073 11.547 27.612 2.008 10.041 2.008 20.081 0 30.122zM748.381 328.452c-2.008-5.522-2.51-11.045-2.008-16.568l24.6-262.567-241.983 103.42c-5.522 2.51-11.547 3.514-17.571 3.514s-12.049-1.004-17.571-3.514l-237.967-102.416 24.6 262.567c0 5.522 0 11.045-2.008 16.568-1.004 2.51-2.008 5.020-3.514 8.032l-4.519 6.527-176.216 199.812 256.040 57.735c5.522 1.507 11.045 3.514 16.066 7.029 3.012 2.008 5.522 4.519 8.032 7.531v0s138.563 227.424 138.563 227.424l132.037-222.404c3.012-5.020 7.029-9.037 12.049-12.551 3.514-2.51 7.531-4.519 12.049-6.024l261.563-61.751-174.71-197.804c-3.514-4.017-6.527-9.037-8.534-14.559z" />
<glyph unicode="&#xe906;" glyph-name="whatsapp" d="M870.4 812.8c-96 96-224 147.2-358.4 147.2-281.6 0-512-230.4-512-512 0-89.6 25.6-179.2 70.401-256l-70.401-256 268.801 70.4c76.8-38.4 159.999-64 243.199-64 281.6 0 512 230.4 512 512 0 134.4-57.6 262.4-153.6 358.4zM512 25.6c-76.8 0-153.599 19.2-217.599 57.6l-12.801 6.4-160-44.8 44.801 153.6-12.801 19.2c-44.8 70.4-64 147.2-64 224 0 230.4 192.001 422.4 422.401 422.4 115.2 0 217.6-44.8 300.8-121.6 83.2-83.2 121.6-185.6 121.6-300.8 0-224-185.6-416-422.4-416zM742.4 345.6c-12.8 6.4-76.8 38.4-89.6 38.4-12.8 6.4-19.201 6.4-25.601-6.4s-31.999-38.4-38.399-51.2c-6.4-6.4-12.801-6.4-25.601-6.4-12.8 6.4-51.199 19.2-102.399 64-38.4 32-64 76.8-70.4 89.6s0 19.2 6.4 25.6c6.4 6.4 12.799 12.8 19.199 19.2s6.401 12.8 12.801 19.2c6.4 6.4 0 12.8 0 19.2s-25.6 70.4-38.4 96c-6.4 19.2-19.2 19.2-25.6 19.2s-12.801 0-25.601 0c-6.4 0-19.2 0-32-12.8s-44.799-44.8-44.799-108.8c0-64 44.799-121.6 51.199-134.4 6.4-6.4 89.6-140.8 217.6-192 108.8-44.8 128.001-32 153.601-32s76.8 32 83.2 57.6c12.8 32 12.8 57.6 6.4 57.6-6.4 32-19.2 32-32 38.4z" />
<glyph unicode="&#xe907;" glyph-name="search" d="M1010.693 11.085l-253.258 253.258c8.188 10.528 16.962 20.471 24.565 31.584 46.791 70.187 71.942 152.656 71.942 236.881 0 114.054-44.452 221.089-125.167 301.804s-187.75 125.167-301.804 125.167c-84.81 0-166.694-25.15-236.881-71.942s-124.582-113.469-157.335-191.26c-32.754-78.375-40.942-163.77-24.565-246.824s56.735-158.506 116.979-218.749c59.659-59.659 135.695-100.016 218.749-116.979 27.49-5.264 55.565-8.188 83.639-8.188 55.565 0 111.129 11.113 163.185 32.754 38.602 15.792 73.696 37.433 105.866 63.168l252.673-252.673c8.773-8.773 19.886-12.867 31-12.867s22.225 4.094 31 12.867c16.962 16.962 16.962 45.037 0 61.998zM556.817 219.891c-61.998-25.735-129.846-32.754-195.939-19.302-66.093 12.867-125.752 45.037-173.712 92.998-47.377 47.377-79.545 107.62-92.998 173.712-12.867 66.093-6.434 133.94 19.302 195.939s69.017 114.639 124.582 152.072 121.073 57.319 188.335 57.319c90.658 0 175.468-35.094 239.806-99.431 63.754-63.754 99.431-149.147 99.431-239.806 0-67.262-19.886-132.185-57.319-188.335s-90.073-99.431-152.072-124.582z" />
<glyph unicode="&#xe908;" glyph-name="chat" d="M512.001 959.999c-280.488 0-512.002-231.513-512.002-512.002 0-106.852 31.166-204.797 89.043-289.39l-57.878-173.635c-4.453-8.903 0-17.81 4.453-22.259 8.904-4.454 17.809-8.907 26.713-4.454l178.087 57.88c80.139-53.426 178.087-80.139 271.584-80.139 280.487 0 511.997 231.51 511.997 511.997 0 280.488-231.51 512.002-511.997 512.002zM819.201 238.747c-13.357-40.070-66.783-75.686-111.306-84.593-8.903 0-17.81-4.449-31.167-4.449-35.616 0-80.139 13.357-151.371 40.070-89.045 35.616-178.088 115.755-249.324 218.154l-4.451 4.454c-26.713 35.616-66.783 97.948-66.783 164.731 0 75.687 40.070 115.756 53.426 133.565 17.808 17.808 40.070 26.713 66.783 26.713 4.451 0 8.904 0 13.357 0h4.451c22.262 0 35.618-8.905 48.975-35.618l8.904-17.808c13.357-31.166 31.166-80.139 35.617-89.044 8.905-17.808 8.905-31.165 0-44.521-4.451-8.905-8.904-17.809-17.808-26.713-4.453-4.453-8.905-8.905-8.905-13.357-4.451-4.453-8.904-8.905-13.357-13.357 0-4.453 0-4.453 0-4.453 13.357-22.259 40.070-62.329 75.688-93.496 48.974-44.523 84.59-57.88 102.4-66.783h4.454c4.449 0 8.903-4.454 8.903 0 8.903 8.903 17.81 26.713 31.167 40.070l4.449 4.454c13.357 17.806 31.167 22.259 40.070 22.259 4.454 0 13.357 0 17.81-4.454 4.454 0 13.357-4.449 97.949-48.973l8.903-4.454c13.357-4.449 22.259-8.903 26.713-22.259 17.81-8.903 13.357-48.973 4.454-80.139z" />
<glyph unicode="&#xe909;" glyph-name="telegram" d="M65.362 505.825c255.242 117.413 425.443 194.818 510.607 232.218 243.155 106.782 293.673 125.331 326.61 125.95 7.239 0.13 23.431-1.767 33.929-10.753 8.856-7.588 11.292-17.84 12.461-25.036 1.167-7.196 2.616-23.583 1.462-36.391-13.177-146.175-70.19-500.903-99.197-664.627-12.272-69.277-36.441-92.5-59.838-94.775-50.84-4.938-89.453 35.48-138.701 69.56-77.058 53.336-120.593 86.541-195.391 138.582-86.447 60.145-30.406 93.206 18.857 147.23 12.892 14.138 236.92 229.284 241.254 248.798 0.546 2.44 1.046 11.539-4.072 16.345-5.122 4.806-12.675 3.161-18.13 1.854-7.724-1.851-130.832-87.762-369.314-257.733-34.943-25.334-66.592-37.676-94.951-37.031-31.262 0.712-91.396 18.662-136.103 34.005-54.833 18.818-98.41 28.769-94.614 60.727 1.977 16.647 23.687 33.67 65.135 51.074z" />
<glyph unicode="&#xe90a;" glyph-name="viber" horiz-adv-x="949" d="M946.799 584.439c-4.442 63.148-15.43 124.685-40.445 183.469-23.119 54.212-58.68 96.994-110.632 125.828-28.388 15.847-61.293 29.5-95.838 39.243l-3.261 0.786c-68.655 19.456-139.101 25.976-195.807 25.976-105.307 1.896-194.872-5.923-281.398-36.107-62.888-21.846-118.113-54.212-154.817-112.398-30.392-48.263-46.107-101.696-54.991-157.311-8.338-52.212-9.611-104.943-9.611-157.752 0-71.096 4.883-141.413 27.587-209.574 31.353-94.085 92.137-159.493 187.027-190.378 14.91-4.858 15.404-11.611 14.754-23.898-1.714-32.808-2.416-65.719 0.857-98.475 2.598-26.807 20.781-41.562 44.393-37.042 12.339 2.39 21.846 10.105 29.95 19.326 27.431 31.171 55.277 61.823 81.772 93.695 10.754 12.988 22.781 12.988 36.756 10.105 2.955-0.796 6.401-1.352 9.942-1.552l0.136-0.006c28.418 0 56.861-0.909 85.227 0 75.824 2.598 150.167 14.261 222.329 38.652 66.525 22.469 118.503 62.576 152.999 124.061 13.412 22.632 24.136 48.844 30.781 76.641l0.391 1.936c3.663 16.703 9.793 33.457 12.183 50.627 10.728 77.772 15.196 155.778 9.715 234.148zM870.196 404.114c-4.052-38.808-10.884-76.811-26.573-112.814-26.859-61.589-71.72-103.281-136.192-123.36-89.098-27.768-180.481-37.821-273.449-33.769-16.521 0.701-27.379-3.455-38.574-16.339-41.302-47.562-84.162-93.773-126.503-140.452-1.23-0.956-2.619-1.822-4.095-2.537l-0.139-0.061c0 40.756 0 80.37 0 119.957 0 18.183-0.39 36.366 0 54.55 0.156 7.377-1.74 11.403-9.481 13.689-46.946 13.626-86.458 40.49-115.412 76.251l-0.337 0.43c-28.392 34.964-45.25 75.538-53.173 119.074-19.872 109.099-19.404 218.614 7.169 326.518 21.898 89.124 80.266 145.725 167.935 173.182 81.98 25.664 165.883 30.548 250.954 27.093 62.81-2.598 124.815-9.793 184.43-30.366 36.366-12.52 71.85-26.937 99.618-55.329 33.041-33.769 50.757-75.33 62.057-120.191 22.963-91.098 21.456-183.053 11.767-275.527zM602.202 425.752c-20.391 10.39-39.847 4.806-53.9-13.17-5.325-6.806-10.39-13.845-16.079-20.313-8.728-9.871-18.885-13.248-32.418-9.144-37.198 11.222-66.421 34.055-93.124 60.966-23.172 22.722-40.41 51.412-49.231 83.584l-0.305 1.306c-4.234 16.157-1.455 29.768 12.728 39.977q7.793 5.637 15.326 11.871c21.326 17.768 25.249 31.769 12.988 56.758-19.244 38.165-43.458 70.774-72.312 98.605l-0.109 0.104c-13.715 13.43-34.132 14.573-50.212 4.182-11.872-7.274-22.119-14.719-31.744-22.875l0.365 0.302c-30.288-27.093-44.679-38.626-29.535-83.123 28.833-84.812 74.889-159.597 134.66-226.147 68.992-76.811 152.297-132.841 247.707-171.442 6.312-2.805 13.67-4.462 21.409-4.52h0.021c3.429 0.364 6.884 0.597 10.39 1.117 3.233 0.263 6.224 0.984 9.014 2.1l-0.208-0.073c35.042 17.456 60.16 44.159 73.538 81.149 1.365 3.388 2.158 7.316 2.158 11.43 0 9.194-3.958 17.465-10.263 23.2l-0.025 0.023c-30.418 29.119-63.433 54.809-100.839 74.136zM471.049 732.554c1.714 0 3.455 0 5.195 0 101.462-3.325 182.274-70.889 203.808-169.987 4.442-20.391 5.767-41.016 6.91-61.693 0.26-4.728 0.494-8.624 6.754-8.598s6.65 4.052 6.572 8.702c0 3.455 0 6.91 0 13.274-0.52 5.715-1.403 14.287-2.13 22.859-8.156 95.851-71.148 173.52-163.051 200.561-19.107 5.55-41.068 8.788-63.77 8.884h-0.053c-5.377 0-9.689-1.143-9.533-7.611 0.156-6.052 4.883-6.182 9.299-6.39zM620.826 568.568c3.272-12.985 5.249-27.94 5.454-43.323l0.001-0.134c0.182-4.338 0.364-9.066 6.468-9.299 6.884-0.26 7.273 4.65 7.377 9.637 0 2.598 0 5.195 0 7.793 0 0.087 0 0.189 0 0.292 0 51.196-25.373 96.465-64.231 123.918l-0.476 0.319c-25.249 17.768-54.108 25.664-84.656 27.846-4.312 0.286-9.144 0.39-9.377-5.949-0.182-5.195 2.598-7.793 7.793-8.234 2.156 0 4.312-0.234 6.442-0.468 64.057-7.091 109.619-44.289 125.204-102.397zM509.597 621.818c-4.286 0-8.78 1.169-9.17-5.663-0.338-5.871 2.598-6.832 7.585-7.793 40.834-7.143 53.64-20.599 59.537-62.109 0.649-4.65 0-10.39 6.936-9.949 6.494 0.468 6.26 5.923 6.234 10.754-0.675 42.731-31.015 74.577-71.122 74.759z" />
<glyph unicode="&#xe90b;" glyph-name="vk" d="M1018.569 212.489c-1.242 2.673-2.395 4.89-3.469 6.667-17.768 31.998-51.72 71.269-101.832 117.833l-1.059 1.066-0.533 0.526-0.533 0.533h-0.54c-22.741 21.682-37.146 36.262-43.179 43.726-11.035 14.218-13.507 28.61-7.475 43.193 4.261 11.017 20.266 34.285 47.984 69.834 14.577 18.84 26.123 33.94 34.649 45.316 61.494 81.754 88.157 133.996 79.978 156.746l-3.177 5.316c-2.136 3.201-7.642 6.129-16.519 8.799-8.895 2.665-20.266 3.105-34.134 1.329l-153.541-1.061c-2.49 0.881-6.040 0.799-10.67-0.269-4.619-1.068-6.93-1.604-6.93-1.604l-2.673-1.335-2.121-1.604c-1.778-1.061-3.732-2.926-5.868-5.593-2.121-2.657-3.9-5.776-5.316-9.33-16.72-43.007-35.726-82.994-57.054-119.957-13.153-22.041-25.232-41.142-36.263-57.316-11.017-16.167-20.258-28.080-27.715-35.715-7.471-7.643-14.212-13.767-20.266-18.392-6.043-4.627-10.659-6.582-13.854-5.867-3.202 0.715-6.218 1.425-9.074 2.134-4.973 3.201-8.972 7.553-11.988 13.062-3.031 5.509-5.068 12.442-6.134 20.796-1.062 8.358-1.691 15.548-1.87 21.592-0.164 6.037-0.088 14.577 0.274 25.595 0.369 11.023 0.533 18.482 0.533 22.392 0 13.509 0.263 28.169 0.792 43.987 0.537 15.817 0.975 28.349 1.336 37.581 0.362 9.242 0.533 19.019 0.533 29.327s-0.628 18.392-1.87 24.259c-1.223 5.86-3.104 11.548-5.583 17.062-2.494 5.509-6.142 9.77-10.929 12.796-4.798 3.022-10.761 5.419-17.859 7.201-18.842 4.263-42.832 6.569-71.981 6.928-66.11 0.71-108.587-3.559-127.426-12.801-7.463-3.905-14.217-9.24-20.257-15.988-6.4-7.823-7.292-12.092-2.672-12.794 21.329-3.195 36.428-10.838 45.316-22.922l3.202-6.403c2.49-4.62 4.977-12.799 7.467-24.526 2.486-11.727 4.090-24.7 4.794-38.911 1.774-25.951 1.774-48.165 0-66.645-1.778-18.487-3.458-32.879-5.065-43.187-1.603-10.308-3.998-18.661-7.197-25.057-3.202-6.397-5.335-10.308-6.401-11.727s-1.957-2.314-2.662-2.665c-4.619-1.77-9.424-2.672-14.398-2.672-4.98 0-11.019 2.491-18.126 7.47s-14.48 11.817-22.123 20.526c-7.643 8.711-16.263 20.885-25.863 36.522-9.593 15.637-19.546 34.119-29.854 55.444l-8.528 15.466c-5.332 9.95-12.614 24.437-21.856 43.449-9.247 19.020-17.421 37.417-24.526 55.189-2.841 7.464-7.107 13.146-12.794 17.056l-2.668 1.604c-1.774 1.419-4.621 2.926-8.528 4.532-3.912 1.604-7.994 2.755-12.263 3.462l-146.083-1.061c-14.928 0-25.057-3.382-30.39-10.136l-2.134-3.195c-1.066-1.78-1.604-4.621-1.604-8.534 0-3.91 1.066-8.709 3.201-14.392 21.326-50.121 44.517-98.458 69.573-145.019s46.83-84.068 65.308-112.486c18.482-28.438 37.32-55.279 56.515-80.506 19.195-25.239 31.9-41.411 38.117-48.517 6.224-7.117 11.113-12.441 14.666-15.993l13.331-12.795c8.53-8.53 21.056-18.75 37.585-30.654 16.532-11.911 34.834-23.64 54.916-35.2 20.085-11.542 43.451-20.959 70.114-28.244 26.656-7.292 52.599-10.221 77.839-8.807h61.316c12.433 1.074 21.854 4.984 28.259 11.732l2.121 2.673c1.424 2.121 2.76 5.415 3.995 9.852 1.245 4.444 1.866 9.337 1.866 14.661-0.365 15.281 0.8 29.051 3.458 41.313 2.658 12.258 5.685 21.5 9.074 27.726 3.385 6.218 7.208 11.466 11.458 15.72 4.261 4.261 7.3 6.843 9.077 7.734 1.771 0.895 3.184 1.501 4.251 1.866 8.534 2.841 18.571 0.088 30.132-8.271 11.557-8.354 22.391-18.666 32.527-30.925 10.129-12.269 22.303-26.035 36.518-41.313 14.222-15.289 26.659-26.652 37.318-34.126l10.659-6.397c7.12-4.269 16.362-8.179 27.736-11.732 11.356-3.553 21.306-4.44 29.847-2.666l136.485 2.129c13.5 0 24.001 2.235 31.454 6.671 7.464 4.44 11.9 9.337 13.331 14.661 1.424 5.328 1.501 11.374 0.27 18.137-1.263 6.74-2.512 11.458-3.75 14.12z" />
<glyph unicode="&#xe90c;" glyph-name="chevron-left" horiz-adv-x="582" d="M463.297-44.355l-442.833 442.833c-27.012 27.012-27.012 71.213 0 98.225l442.833 442.833c27.012 27.012 71.213 27.012 98.225 0s27.012-71.213 0-98.225l-393.72-393.72 393.72-393.72c27.012-27.012 27.012-71.213 0-98.225s-71.213-27.012-98.225 0z" />
<glyph unicode="&#xe90d;" glyph-name="chevron-right" horiz-adv-x="582" d="M118.703-44.355l442.833 442.833c27.012 27.012 27.012 71.213 0 98.225l-442.833 442.833c-27.012 27.012-71.213 27.012-98.225 0s-27.012-71.213 0-98.225l393.72-393.72-393.72-393.72c-27.012-27.012-27.012-71.213 0-98.225s71.213-27.012 98.225 0z" />
<glyph unicode="&#xe90e;" glyph-name="chevron-up" d="M1003.75 275.765l-442.657 442.657c-27.001 27.001-71.185 27.001-98.186 0l-442.657-442.657c-27.001-27.001-27.001-71.185 0-98.186s71.185-27.001 98.186 0l393.563 393.563 393.563-393.563c27.001-27.001 71.185-27.001 98.186 0s27.001 71.185 0 98.186z" />
<glyph unicode="&#xe90f;" glyph-name="instagram" d="M512 867.47c135.708 0 154.214 0 209.732 0 49.351 0 74.030-12.337 92.535-18.506 24.673-12.337 43.179-18.506 61.685-37.012s30.845-37.012 37.012-61.687c6.167-18.506 12.339-43.18 18.506-92.53 0-55.518 0-67.855 0-209.735s0-154.214 0-209.732c0-49.351-12.339-74.030-18.506-92.535-12.339-24.673-18.506-43.179-37.012-61.685s-37.012-30.845-61.685-37.012c-18.506-6.167-43.184-12.339-92.535-18.506-55.518 0-67.851 0-209.732 0s-154.217 0-209.735 0c-49.349 0-74.024 12.339-92.53 18.506-24.675 12.339-43.181 18.506-61.687 37.012s-30.843 37.012-37.012 61.685c-6.169 18.506-12.337 43.184-18.506 92.535 0 55.518 0 67.851 0 209.732s0 154.217 0 209.735c0 49.349 12.337 74.024 18.506 92.53 12.337 24.675 18.506 43.181 37.012 61.687s37.012 30.843 61.687 37.012c18.506 6.169 43.18 12.337 92.53 18.506 55.518 0 74.024 0 209.735 0zM512 960c-141.88 0-154.217 0-209.735 0s-92.53-12.337-123.373-24.675c-30.843-12.337-61.687-30.843-92.53-61.687s-43.181-55.518-61.687-92.53c-12.337-30.843-18.506-67.855-24.675-123.373 0-55.518 0-74.024 0-209.735 0-141.881 0-154.214 0-209.732 0-55.524 12.337-92.535 24.675-123.375 12.337-30.845 30.843-61.69 61.687-92.53 30.843-30.845 55.518-43.184 92.53-61.69 30.843-12.334 67.855-18.506 123.373-24.673 55.518 0 74.024 0 209.735 0 135.708 0 154.214 0 209.732 0 55.524 0 92.535 12.339 123.375 24.673 30.845 12.339 61.69 30.845 92.53 61.69 30.845 30.839 43.184 55.518 61.69 92.53 12.334 30.839 18.506 67.851 24.673 123.375 0 55.518 0 74.024 0 209.732 0 135.711 0 154.217 0 209.735s-12.339 92.53-24.673 123.373c-12.339 30.843-30.845 61.687-61.69 92.53-30.839 30.843-55.518 43.181-92.53 61.687-30.839 12.337-67.851 18.506-123.375 24.675-55.518 0-67.851 0-209.732 0zM512 713.253c-148.048 0-265.253-117.205-265.253-265.253s117.205-265.256 265.253-265.256c148.048 0 265.256 117.208 265.256 265.256s-117.208 265.253-265.256 265.253zM512 275.28c-92.53 0-172.723 74.024-172.723 172.72 0 92.53 74.024 172.723 172.723 172.723 92.53 0 172.72-74.024 172.72-172.723 0-92.53-80.191-172.72-172.72-172.72zM783.423 657.735c34.065 0 61.685 27.618 61.685 61.686s-27.62 61.687-61.685 61.687c-34.071 0-61.69-27.618-61.69-61.687s27.62-61.686 61.69-61.686z" />
<glyph unicode="&#xe910;" glyph-name="youtube" d="M998.401 697.601c-12.8 44.8-44.8 76.8-89.6 89.6-76.8 19.2-403.201 19.2-403.201 19.2s-319.999 0-403.199-19.2c-44.801-12.8-76.801-44.8-89.601-89.6-12.8-83.2-12.8-249.6-12.8-249.6s0-166.4 19.2-249.6c12.8-44.801 44.8-76.801 89.6-89.601 76.8-19.2 403.2-19.2 403.2-19.2s320 0 403.2 19.2c44.8 12.8 76.8 44.8 89.6 89.601 19.2 83.2 19.2 249.6 19.2 249.6s0 166.4-25.6 249.6zM409.599 294.401v307.2l268.801-153.6-268.801-153.6z" />
<glyph unicode="&#xe911;" glyph-name="chevron-down" d="M1003.75 620.235l-442.657-442.657c-27.001-27.001-71.185-27.001-98.186 0l-442.657 442.657c-27.001 27.001-27.001 71.185 0 98.186s71.185 27.001 98.186 0l393.563-393.563 393.563 393.563c27.001 27.001 71.185 27.001 98.186 0s27.001-71.185 0-98.186z" />
<glyph unicode="&#xe912;" glyph-name="facebook" d="M1024 448c0 281.6-230.4 512-512 512s-512-230.4-512-512c0-256 185.6-467.2 428.8-505.6v358.4h-128v147.2h128v115.2c0 128 76.8 198.4 192 198.4 57.6 0 115.2-12.8 115.2-12.8v-128h-64c-64 0-83.2-38.4-83.2-76.8v-96h140.8l-25.6-147.2h-121.6v-364.8c256 38.4 441.6 256 441.6 512z" />
<glyph unicode="&#xe913;" glyph-name="close" d="M116.822 939.957c-26.725 26.724-70.053 26.724-96.778 0s-26.724-70.054 0-96.779l395.178-395.179-395.174-395.178c-26.724-26.726-26.724-70.059 0-96.777 26.725-26.726 70.054-26.726 96.777 0l395.173 395.176 395.173-395.176c26.726-26.726 70.059-26.726 96.785 0 26.718 26.718 26.718 70.050 0 96.777l-395.18 395.178 395.18 395.179c26.726 26.725 26.726 70.054 0 96.779-26.718 26.724-70.050 26.724-96.777 0l-395.181-395.18-395.176 395.18z" />
<glyph unicode="&#xe914;" glyph-name="x" d="M806.462 903.111h157.019l-343.045-385.561 403.564-524.661h-315.984l-247.494 318.202-283.186-318.202h-157.115l366.917 412.401-387.138 497.821h324.008l223.711-290.85 258.744 290.85zM751.348 85.311h87.011l-561.629 730.232h-93.366l567.984-730.232z" />
<glyph unicode="&#xe915;" glyph-name="left" d="M19.053 402.889l404.22-404.22c24.656-24.656 65.004-24.656 89.661 0s24.656 65.004 0 89.661l-295.88 295.88h743.437c35.117 0 63.51 28.393 63.51 63.51s-28.393 63.51-63.51 63.51h-743.437l295.88 295.88c24.656 24.656 24.656 65.004 0 89.661-24.656 25.404-65.004 25.404-89.661 0l-404.22-404.22c-25.404-24.656-25.404-65.004 0-89.661z" />
<glyph unicode="&#xe916;" glyph-name="right" d="M1004.947 402.889l-404.22-404.22c-24.656-24.656-65.004-24.656-89.661 0s-24.656 65.004 0 89.661l295.88 295.88h-743.437c-35.117 0-63.51 28.393-63.51 63.51s28.393 63.51 63.51 63.51h743.437l-295.88 295.88c-24.656 24.656-24.656 65.004 0 89.661 24.656 25.404 65.004 25.404 89.661 0l404.22-404.22c25.404-24.656 25.404-65.004 0-89.661z" />
<glyph unicode="&#xe917;" glyph-name="up" horiz-adv-x="960" d="M525.111 940.947l404.22-404.22c24.656-24.656 24.656-65.004 0-89.661s-65.004-24.656-89.661 0l-295.88 295.88v-743.436c0-35.117-28.393-63.51-63.51-63.51s-63.51 28.393-63.51 63.51v743.436l-295.88-295.88c-24.656-24.656-65.004-24.656-89.661 0-25.404 24.656-25.404 65.004 0 89.661l404.22 404.22c24.656 25.404 65.004 25.404 89.661 0z" />
<glyph unicode="&#xe918;" glyph-name="down" horiz-adv-x="960" d="M525.111-44.947l404.22 404.22c24.656 24.656 24.656 65.004 0 89.661s-65.004 24.656-89.661 0l-295.88-295.88v743.436c0 35.117-28.393 63.51-63.51 63.51s-63.51-28.393-63.51-63.51v-743.436l-295.88 295.88c-24.656 24.656-65.004 24.656-89.661 0-25.404-24.656-25.404-65.004 0-89.661l404.22-404.22c24.656-25.404 65.004-25.404 89.661 0z" />
<glyph unicode="&#xe919;" glyph-name="plus" d="M524.080-64c-28.764 0-51.775 23.011-51.775 51.775v396.369h-420.53c-28.764 0-51.775 23.011-51.775 51.775s23.011 51.775 51.775 51.775h420.53v420.53c0 28.764 23.011 51.775 51.775 51.775s51.775-23.011 51.775-51.775v-420.53h396.369c28.764 0 51.775-23.011 51.775-51.775s-23.011-51.775-51.775-51.775h-396.369v-396.369c0-28.764-23.011-51.775-51.775-51.775z" />
<glyph unicode="&#xe91a;" glyph-name="user" horiz-adv-x="926" d="M560.524 352h-195.048c-197.485 0-357.587-157.599-357.587-352 0-35.339 29.115-64 65.016-64h780.188c35.903 0 65.018 28.661 65.018 64 0 194.401-160.102 352-357.587 352zM107.424 32c16.051 126.202 125.582 224 258.052 224h195.048c132.387 0 241.983-97.9 258.032-224h-711.132zM463 448c143.622 0 260.062 114.62 260.062 256s-116.44 256-260.062 256c-143.624 0-260.064-114.62-260.064-256 0-141.4 116.419-256 260.064-256zM463 864c89.62 0 162.537-71.78 162.537-160s-72.917-160-162.537-160c-89.62 0-162.54 71.8-162.54 160 0 88.22 72.94 160 162.54 160z" />
<glyph unicode="&#xe91b;" glyph-name="move" horiz-adv-x="656" d="M8 919.040c0 22.622 19.103 40.96 42.667 40.96h128c23.564 0 42.666-18.338 42.666-40.96v-122.88c0-22.621-19.102-40.96-42.666-40.96h-128c-23.564 0-42.667 18.339-42.667 40.96v122.88zM8 509.44c0 22.621 19.103 40.96 42.667 40.96h128c23.564 0 42.666-18.339 42.666-40.96v-122.88c0-22.621-19.102-40.96-42.666-40.96h-128c-23.564 0-42.667 18.339-42.667 40.96v122.88zM8 99.84c0 22.624 19.103 40.96 42.667 40.96h128c23.564 0 42.666-18.336 42.666-40.96v-122.88c0-22.624-19.102-40.96-42.666-40.96h-128c-23.564 0-42.667 18.336-42.667 40.96v122.88zM434.667 919.040c0 22.622 19.102 40.96 42.666 40.96h128c23.564 0 42.667-18.338 42.667-40.96v-122.88c0-22.621-19.103-40.96-42.667-40.96h-128c-23.564 0-42.666 18.339-42.666 40.96v122.88zM434.667 509.44c0 22.621 19.102 40.96 42.666 40.96h128c23.564 0 42.667-18.339 42.667-40.96v-122.88c0-22.621-19.103-40.96-42.667-40.96h-128c-23.564 0-42.666 18.339-42.666 40.96v122.88zM434.667 99.84c0 22.624 19.102 40.96 42.666 40.96h128c23.564 0 42.667-18.336 42.667-40.96v-122.88c0-22.624-19.103-40.96-42.667-40.96h-128c-23.564 0-42.666 18.336-42.666 40.96v122.88z" />
<glyph unicode="&#xe91c;" glyph-name="bin" horiz-adv-x="976" d="M532.096 960h-88.191c-35.085 0-68.732-13.486-93.541-37.49s-38.746-56.562-38.746-90.51v-42.667h-264.574c-11.695 0-22.911-4.495-31.18-12.497s-12.915-18.854-12.915-30.17c0-11.316 4.646-22.169 12.915-30.17s19.485-12.497 31.18-12.497h44.095v-597.331c0-45.266 18.583-88.673 51.661-120.681s77.942-49.987 124.722-49.987h440.956c46.781 0 91.643 17.979 124.723 49.987 33.075 32.008 51.658 75.415 51.658 120.681v597.331h44.097c11.695 0 22.911 4.495 31.183 12.497 8.267 8.002 12.913 18.854 12.913 30.17s-4.646 22.168-12.913 30.17c-8.273 8.002-19.488 12.497-31.183 12.497h-264.575v42.667c0 33.948-13.937 66.505-38.745 90.51s-58.454 37.49-93.541 37.49zM399.809 832c0 11.316 4.646 22.169 12.915 30.17s19.485 12.497 31.18 12.497h88.191c11.696 0 22.912-4.495 31.179-12.497 8.273-8.001 12.919-18.854 12.919-30.17v-42.667h-176.385v42.667zM796.672 106.668c0-22.636-9.291-44.339-25.832-60.341-16.54-16.007-38.971-24.996-62.362-24.996h-440.956c-23.39 0-45.822 8.99-62.361 24.996-16.539 16.001-25.831 37.705-25.831 60.341v597.331h617.34v-597.331zM541.895 194.695c0-11.436 5.681-22.404 15.786-30.488s23.816-12.628 38.109-12.628c14.293 0 28.004 4.543 38.109 12.628s15.786 19.052 15.786 30.488v344.926c0 11.435-5.681 22.402-15.786 30.488s-23.816 12.628-38.109 12.628c-14.293 0-28.004-4.543-38.109-12.628s-15.786-19.053-15.786-30.488v-344.926zM380.211 582.737c-14.294 0-28.002-4.543-38.11-12.628s-15.785-19.053-15.785-30.488v-344.926c0-11.436 5.678-22.404 15.785-30.488s23.816-12.628 38.11-12.628c14.294 0 28.002 4.543 38.11 12.628s15.785 19.052 15.785 30.488v344.926c0 11.435-5.678 22.402-15.785 30.488s-23.816 12.628-38.11 12.628z" />
<glyph unicode="&#xe91d;" glyph-name="edit" d="M771.804-63.489h-636.637c-36.279 0-69.632 14.043-95.378 39.79-25.747 25.161-39.79 59.099-39.79 95.378v637.222c0 36.279 14.043 69.632 39.204 95.378 25.747 25.747 59.685 39.79 95.378 39.79h318.318c23.991 0 43.886-19.895 43.886-43.886s-19.895-43.886-43.886-43.886h-317.733c-12.288 0-24.576-4.681-33.353-14.043-8.777-8.777-14.043-20.48-14.043-33.353v-637.222c0-12.288 4.681-24.576 14.043-33.353 8.777-8.777 21.065-14.043 33.353-14.043h637.222c12.288 0 24.576 4.681 33.353 14.043s14.043 21.065 14.043 33.353v318.318c0 23.991 19.895 43.886 43.886 43.886s43.886-19.895 43.886-43.886v-318.318c0-36.279-14.043-70.217-39.79-95.378-25.161-25.161-59.099-39.204-95.378-39.204zM336.457 229.083c-11.703 0-22.821 4.681-31.013 12.873-11.117 11.117-15.214 26.916-11.703 41.546l45.641 182.564c1.755 7.607 5.851 14.628 11.703 20.48l433.006 433.006s0 0 0 0c53.248 53.248 145.701 53.248 198.949 0 26.332-26.332 40.96-62.025 40.96-99.474s-14.628-73.143-41.546-99.474l-433.006-433.006c-5.851-5.851-12.873-9.362-20.48-11.703l-182.564-45.641c-3.511-0.585-7.022-1.171-10.533-1.171zM421.888 432.713l-25.161-99.474 99.474 24.576 424.229 424.229c9.948 9.948 15.214 23.405 15.214 37.449s-5.266 27.502-15.214 37.449c-19.895 19.895-54.419 19.895-74.898 0l-424.229-424.229z" />
<glyph unicode="&#xe91e;" glyph-name="download" d="M972.8 345.6c-28.16 0-51.2-23.040-51.2-51.2v-204.8c0-13.312-5.632-26.624-14.848-36.352s-22.528-14.848-36.352-14.848h-716.8c-13.312 0-26.624 5.632-36.352 14.848-9.728 9.728-14.848 22.528-14.848 36.352v204.8c0 28.16-23.040 51.2-51.2 51.2s-51.2-23.040-51.2-51.2v-204.8c0-40.96 15.872-79.36 45.056-108.544s67.584-45.056 108.544-45.056h716.8c40.96 0 79.36 15.872 108.544 45.056s45.056 67.584 45.056 108.544v204.8c0 28.16-23.040 51.2-51.2 51.2zM475.648 258.048c4.608-4.608 10.24-8.704 16.896-11.264 6.144-2.56 12.8-4.096 19.456-4.096s13.312 1.536 19.456 4.096c6.144 2.56 11.776 6.144 16.896 11.264l256 256c19.968 19.968 19.968 52.224 0 72.192s-52.224 19.968-72.192 0l-168.448-168.448v491.008c0 28.16-23.040 51.2-51.2 51.2s-51.2-23.040-51.2-51.2v-491.008l-168.448 168.448c-19.968 19.968-52.224 19.968-72.192 0s-19.968-52.224 0-72.192l256-256z" />
<glyph unicode="&#xe91f;" glyph-name="qr" d="M856.161 266.86h-144.906c-10.004 0-18.115-8.11-18.115-18.115v-144.906c0-10.004 8.11-18.115 18.115-18.115h144.906c10.004 0 18.115 8.11 18.115 18.115v144.906c0 10.004-8.11 18.115-18.115 18.115zM675.026 411.771h-108.682c-10.004 0-18.115-8.11-18.115-18.115v-108.682c0-10.004 8.11-18.115 18.115-18.115h108.682c10.004 0 18.115 8.11 18.115 18.115v108.682c0 10.004-8.11 18.115-18.115 18.115zM1001.073 85.724h-108.682c-10.004 0-18.115-8.11-18.115-18.115v-108.682c0-10.004 8.11-18.115 18.115-18.115h108.682c10.004 0 18.115 8.11 18.115 18.115v108.682c0 10.004-8.11 18.115-18.115 18.115zM1001.073 411.771h-72.453c-10.004 0-18.115-8.11-18.115-18.115v-72.453c0-10.004 8.11-18.115 18.115-18.115h72.453c10.004 0 18.115 8.11 18.115 18.115v72.453c0 10.004-8.11 18.115-18.115 18.115zM638.797 49.495h-72.453c-10.004 0-18.115-8.11-18.115-18.115v-72.453c0-10.004 8.11-18.115 18.115-18.115h72.453c10.004 0 18.115 8.11 18.115 18.115v72.453c0 10.004-8.11 18.115-18.115 18.115zM856.161 810.277h-144.906c-10.004 0-18.115-8.11-18.115-18.114v-144.911c0-10.004 8.11-18.114 18.115-18.114h144.906c10.004 0 18.115 8.11 18.115 18.114v144.911c0 10.004-8.11 18.114-18.115 18.114zM625.495 561.495h316.426v316.427h-316.426v-316.427zM1024 556.683c0-42.684-34.586-77.267-77.266-77.267h-326.052c-42.68 0-77.266 34.583-77.266 77.267v326.050c0 42.684 34.586 77.267 77.266 77.267h326.052c42.68 0 77.266-34.583 77.266-77.267v-326.050zM312.748 810.277h-144.911c-10.004 0-18.114-8.11-18.114-18.114v-144.911c0-10.004 8.11-18.114 18.114-18.114h144.911c10.004 0 18.114 8.11 18.114 18.114v144.911c0 10.004-8.11 18.114-18.114 18.114zM82.079 561.495h316.427v316.427h-316.427v-316.427zM480.584 556.683c0-42.684-34.583-77.267-77.267-77.267h-326.050c-42.684 0-77.267 34.583-77.267 77.267v326.050c0 42.684 34.583 77.267 77.267 77.267h326.050c42.684 0 77.267-34.583 77.267-77.267v-326.050zM312.748 266.86h-144.911c-10.004 0-18.114-8.11-18.114-18.115v-144.906c0-10.004 8.11-18.115 18.114-18.115h144.911c10.004 0 18.114 8.11 18.114 18.115v144.906c0 10.004-8.11 18.115-18.114 18.115zM82.079 18.079h316.427v316.426h-316.427v-316.426zM480.584 13.266c0-42.68-34.583-77.266-77.267-77.266h-326.050c-42.684 0-77.267 34.586-77.267 77.266v326.052c0 42.68 34.583 77.266 77.267 77.266h326.050c42.684 0 77.267-34.586 77.267-77.266v-326.052z" />
<glyph unicode="&#xe920;" glyph-name="flash" horiz-adv-x="976" d="M16.746 400.806l521.77 548.125c24.785 26.037 68.044 2.446 59.579-32.491l-90.683-374.255h426.399c30.62 0 46.583-36.451 25.813-58.951l-494.539-535.75c-25.060-27.147-69.663-2.172-59.612 33.385l101.938 360.595h-465.224c-30.879 0-46.732 36.978-25.442 59.343z" />
<glyph unicode="&#xe921;" glyph-name="info" d="M512 960c-282.8 0-512-229.2-512-512 0-282.797 229.2-512 512-512 282.797 0 512 229.203 512 512 0 282.8-229.203 512-512 512zM512 704c35.34 0 64-28.66 64-64s-28.66-64-64-64c-35.34 0-64 28.6-64 64s28.6 64 64 64zM592 192h-160c-26.4 0-48 21.402-48 48s21.5 48 48 48h32v128h-16c-26.5 0-48 21.5-48 48s21.6 48 48 48h64c26.5 0 48-21.5 48-48v-176h32c26.5 0 48-21.498 48-48s-21.4-48-48-48z" />
<glyph unicode="&#xe922;" glyph-name="lock" horiz-adv-x="912" d="M748.572 521.143c80.794 0 146.286-65.492 146.286-146.286v-292.571c0-80.794-65.492-146.286-146.286-146.286h-585.143c-80.791 0-146.286 65.492-146.286 146.286v292.571c0 80.794 65.495 146.286 146.286 146.286v146.286c0 161.583 130.989 292.571 292.571 292.571s292.571-130.989 292.571-292.571v-146.286zM456 862.476c-107.722 0-195.048-87.326-195.048-195.048v-146.286h390.095v146.286c0 107.722-87.328 195.048-195.048 195.048zM748.572 423.619h-585.143c-26.93 0-48.762-21.831-48.762-48.762v-292.571c0-26.931 21.832-48.762 48.762-48.762h585.143c26.931 0 48.762 21.831 48.762 48.762v292.571c0 26.931-21.831 48.762-48.762 48.762z" />
<glyph unicode="&#xe923;" glyph-name="promocode" d="M0 560v281.6c0 13.579 5.394 26.602 14.996 36.204s22.625 14.996 36.204 14.996h921.6c13.578 0 26.604-5.394 36.204-14.996s14.996-22.625 14.996-36.204v-281.6c-33.946 0-66.504-13.486-90.511-37.489-24.002-24.007-37.489-56.566-37.489-90.511s13.486-66.504 37.489-90.511c24.007-24.002 56.566-37.489 90.511-37.489v-281.6c0-13.578-5.396-26.604-14.996-36.204s-22.625-14.996-36.204-14.996h-921.6c-13.579 0-26.602 5.396-36.204 14.996s-14.996 22.625-14.996 36.204v281.6c33.948 0 66.505 13.486 90.51 37.489 24.005 24.007 37.49 56.566 37.49 90.511s-13.486 66.504-37.49 90.511c-24.005 24.004-56.562 37.489-90.51 37.489zM102.401 638.438c38.462-19.062 70.834-48.488 93.466-84.965s34.625-78.548 34.625-121.474-11.992-84.997-34.625-121.472c-22.632-36.48-55.003-65.905-93.466-84.966v-151.962h819.201v151.962c-38.461 19.062-70.835 48.486-93.466 84.966-22.631 36.475-34.626 78.546-34.626 121.472s11.996 84.997 34.626 121.474c22.631 36.475 55.004 65.903 93.466 84.965v151.962h-819.201v-151.962zM358.4 585.6h307.2v-102.4h-307.2v102.4zM358.4 380.8h307.2v-102.4h-307.2v102.4z" />
<glyph unicode="&#xe924;" glyph-name="stars" d="M739.188 401.986c-261.366 52.944-297.056 90.617-347.217 366.505-0.708 3.886-2.676 7.39-5.567 9.91s-6.522 3.899-10.27 3.899c-3.749 0-7.381-1.378-10.27-3.899s-4.858-6.025-5.567-9.91c-50.148-275.888-85.836-313.561-347.215-366.505-3.681-0.746-7.001-2.824-9.388-5.876s-3.694-6.884-3.694-10.839c0-3.96 1.307-7.792 3.694-10.844 2.387-3.048 5.707-5.126 9.388-5.876 261.379-52.944 297.067-90.617 347.215-366.502 0.711-3.884 2.68-7.385 5.57-9.903s6.52-3.893 10.266-3.893c3.746 0 7.376 1.376 10.266 3.893s4.859 6.019 5.57 9.903c50.16 275.884 85.851 313.556 347.217 366.502 3.678 0.75 6.999 2.828 9.387 5.876 2.388 3.052 3.693 6.884 3.693 10.844 0 3.956-1.304 7.787-3.693 10.839s-5.709 5.13-9.387 5.876zM963.704 727.598c-130.683 25.080-148.526 42.925-173.61 173.608-0.354 1.841-1.338 3.501-2.78 4.694-1.448 1.194-3.263 1.846-5.136 1.846s-3.693-0.653-5.136-1.846c-1.448-1.194-2.432-2.853-2.785-4.694-25.070-130.683-42.918-148.528-173.606-173.608-1.84-0.354-3.501-1.338-4.696-2.783s-1.844-3.26-1.844-5.136c0-1.874 0.649-3.69 1.844-5.135s2.856-2.43 4.696-2.783c130.688-25.080 148.535-42.925 173.606-173.608 0.358-1.84 1.342-3.498 2.785-4.69 1.448-1.192 3.263-1.844 5.136-1.844s3.688 0.652 5.13 1.844c1.448 1.192 2.432 2.851 2.785 4.69 25.084 130.683 42.927 148.527 173.61 173.608 1.84 0.354 3.501 1.338 4.691 2.783 1.195 1.445 1.849 3.26 1.849 5.135s-0.655 3.69-1.849 5.136c-1.189 1.445-2.852 2.43-4.691 2.783zM1018.912 200.348c-101.643 19.505-115.521 33.382-135.025 135.025-0.277 1.433-1.041 2.723-2.169 3.65-1.123 0.932-2.532 1.438-3.994 1.438-1.457 0-2.866-0.506-3.994-1.438-1.123-0.927-1.887-2.217-2.164-3.65-19.501-101.643-33.378-115.521-135.025-135.025-1.433-0.277-2.723-1.041-3.655-2.164-0.927-1.127-1.433-2.537-1.433-3.998 0-1.457 0.506-2.866 1.433-3.994 0.932-1.123 2.221-1.887 3.655-2.164 101.648-19.505 115.526-33.382 135.025-135.025 0.277-1.433 1.041-2.723 2.169-3.65 1.123-0.927 2.532-1.433 3.989-1.433s2.871 0.506 3.994 1.433c1.123 0.927 1.892 2.217 2.169 3.65 19.505 101.643 33.382 115.521 135.025 135.025 1.433 0.277 2.723 1.041 3.65 2.164 0.932 1.127 1.438 2.537 1.438 3.994 0 1.462-0.506 2.871-1.438 3.998-0.927 1.123-2.217 1.887-3.65 2.164z" />
<glyph unicode="&#xe925;" glyph-name="eye" d="M1020.526 459.519c-70.020 110.233-157.021 204.253-267.497 275.039-73.691 47.231-153.472 76.474-237.972 76.877-63.647-0.363-120.236-13.673-173.72-38.801-146.494-68.77-253.017-181.101-339.372-314.809-3.146-4.84-2.299-15.569 1.009-20.812 73.086-114.872 163.878-212.683 281.21-283.429 121.567-73.288 249.588-92.93 383.054-35.938 155.327 66.35 265.4 183.884 355.345 322.715 2.783 4.275 1.129 14.158-2.057 19.159zM573.783 172.944c-75.304-17.788-146.655-2.098-214.659 31.663-92.164 45.739-164.201 115.558-228.897 193.806-12.827 15.529-24.725 31.824-38.64 49.853 77.321 103.457 162.668 195.218 280.848 250.032 95.593 44.368 191.023 42.553 285.648-3.267 102.247-49.53 180.173-127.416 249.588-215.103 7.865-9.962 15.206-20.369 24.281-32.55-95.754-122.939-197.88-236.601-358.169-274.434zM512.112 619.888c-94.463 0.161-171.783-76.595-172.066-170.856-0.283-94.543 76.312-172.025 170.412-172.469 94.624-0.444 172.308 75.909 172.913 170.009 0.605 95.431-76.192 173.155-171.259 173.317z" />
<glyph unicode="&#xe926;" glyph-name="eye-splash" d="M1020.527 459.516c-70.020 110.234-157.021 204.253-267.497 275.039-73.69 47.231-153.472 76.473-237.972 76.877-52.999-0.282-101.118-9.6-146.615-27.226l64.898-63.849c75.183 19.562 150.204 10.769 224.743-25.33 102.248-49.531 180.173-127.416 249.588-215.102 7.865-9.963 15.206-20.369 24.281-32.55-32.227-41.383-65.18-81.677-100.876-118.421l58.404-57.436c49.732 50.378 93.374 107.531 133.103 168.839 2.783 4.275 1.129 14.157-2.057 19.158zM537.363 617.988l143.59-141.291c-12.342 72.925-70.343 130.36-143.59 141.291zM762.671 266.476l-643.573 633.288-66.229-65.14 150.286-147.865c-79.418-62.962-144.638-141.371-201.187-228.937-3.146-4.84-2.299-15.569 1.009-20.813 73.086-114.871 163.878-212.683 281.21-283.429 121.568-73.287 249.588-92.93 383.054-35.938 26.419 11.293 51.547 24.079 75.466 38.196l162.184-159.602 66.229 65.14-208.447 205.1zM573.785 172.94c-75.304-17.787-146.656-2.097-214.659 31.662-92.163 45.739-164.201 115.558-228.897 193.806-12.826 15.528-24.725 31.824-38.64 49.853 50.74 67.883 104.91 130.723 169.565 181.383l100.231-98.617c-13.512-24.362-21.256-52.314-21.337-82-0.282-94.503 76.313-172.026 170.412-172.47 31.38-0.161 60.945 8.148 86.396 22.749l86.517-85.105c-33.437-17.747-69.737-31.864-109.588-41.262zM971.118 61.376l-0.242-0.242-544.311 536.082 544.552-535.84z" />
<glyph unicode="&#xe927;" glyph-name="gift" d="M64.86 0c0-35.401 28.62-64 64-64h320v448h-384v-384zM960.86 704h-84.279c23.919 45.84 30.020 101.1-0.081 162.8-28.838 59.22-90.441 93.231-156.638 93.2-83.601-0.031-137.6-42.64-207.002-136.6-69.402 93.96-123.4 136.569-207 136.6-66.2 0.031-127.76-33.98-156.64-93.2-30.1-61.7-24-117-0.060-162.8h-84.3c-35.34 0-64-28.66-64-64v-128c0-35.2 28.8-63.94 62.2-63.94h896c35.2 0 64 28.74 64 63.94v128c1.801 35.4-26.799 64-62.199 64zM308.66 704c-44.18 0-80 35.82-80 80s35.82 80 80 80c39.8 0 69.2-6.6 172.2-160h-172.2zM717.058 704h-172.198c103.002 153.4 132.382 160 172.181 160 44.177 0 80-35.82 80-80s-35.78-80-79.983-80zM576.86-64h320c35.379 0 64 28.599 64 64v384h-382.199l-1.801-448z" />
<glyph unicode="&#xe928;" glyph-name="share" d="M1008.654 539.298l-337.613 306.921c-25.577 25.577-56.269 0-56.269-40.923v-153.46c-240.42 0-445.034-148.345-542.226-347.844-35.807-66.499-56.269-138.114-71.615-209.729-10.231-51.153 66.499-76.73 97.192-30.692 112.538 179.037 301.805 296.691 516.649 296.691v-168.807c0-40.923 30.692-66.499 56.269-40.923l337.613 306.921c20.461 20.461 20.461 61.384 0 81.846z" />
<glyph unicode="&#xe929;" glyph-name="copy" d="M885.731-64.001h-400.344c-76.366 0-138.269 61.903-138.269 138.269v400.344c0 76.366 61.903 138.269 138.269 138.269h400.344c76.366 0 138.269-61.903 138.269-138.269v-400.344c0-76.366-61.903-138.269-138.269-138.269zM485.388 514.53c-21.984 0-39.919-17.934-39.919-39.919v-400.344c0-21.984 17.934-39.919 39.919-39.919h400.344c21.984 0 39.919 17.934 39.919 39.919v400.344c0 21.984-17.934 39.919-39.919 39.919h-400.344zM182.816 283.118h-44.547c-36.447 0-71.738 14.463-97.772 40.497s-40.497 60.746-40.497 97.772v400.344c0 37.026 14.463 71.738 40.497 97.772s61.324 40.497 97.772 40.497h400.344c36.447 0 71.738-14.463 97.772-40.497s40.497-60.746 40.497-97.772v-44.547c0-27.191-21.984-49.175-49.175-49.175s-49.175 21.984-49.175 49.175v44.547c0 10.414-4.050 20.827-11.571 28.348s-17.934 11.571-28.348 11.571h-400.344c-10.414 0-20.827-4.050-28.348-11.571s-11.571-17.356-11.571-28.348v-400.344c0-10.414 4.050-20.827 11.571-28.348s17.934-11.571 28.348-11.571h44.547c27.191 0 49.175-21.984 49.175-49.175s-21.984-49.175-49.175-49.175z" />
<glyph unicode="&#xe92a;" glyph-name="group" d="M718.176 378.495c-69.506 0-125.11-18.537-166.814-41.703 64.873-55.605 92.675-120.477 97.308-125.11l4.636-9.268v-101.941h370.694v92.672c-4.633 0-78.771 185.351-305.825 185.351zM718.158 471.167c89.569 0 162.181 72.613 162.181 162.181 0 89.57-72.613 162.18-162.181 162.18s-162.181-72.611-162.181-162.18c0-89.569 72.613-162.181 162.181-162.181zM139.012 633.348c0 88.041 74.14 162.18 162.182 162.18 88.040 0 162.177-74.14 162.177-162.18s-74.139-162.181-162.177-162.181c-88.042 0-162.182 74.142-162.182 162.181zM301.194 378.495c-227.053 0-301.193-185.351-301.193-185.351v-92.672h602.382v92.672c0 0-74.139 185.351-301.189 185.351z" />
<glyph unicode="&#xe92b;" glyph-name="ok" horiz-adv-x="624" d="M424.232 695.691c0 60.337-50.843 109.4-113.351 109.4-62.458 0-113.35-49.063-113.35-109.4 0-60.289 50.892-109.384 113.35-109.384 62.508 0 113.351 49.095 113.351 109.384zM585.048 695.725c0-145.688-122.753-264.195-273.766-264.195-150.976 0-273.766 118.508-273.766 264.195 0 145.736 122.786 264.275 273.766 264.275 151.009 0 273.766-118.54 273.766-264.275zM581.742 279.448c-49.5-30.010-103.244-51.297-158.97-63.551l153.040-147.737c31.352-30.202 31.352-79.252 0-109.481-31.319-30.236-82.081-30.236-113.367 0l-150.468 145.178-150.337-145.178c-15.676-15.101-36.218-22.658-56.758-22.658-20.508 0-41.016 7.558-56.691 22.658-31.319 30.229-31.319 79.245-0.033 109.481l153.056 147.737c-55.726 12.255-109.469 33.568-158.97 63.551-37.462 22.801-48.714 70.565-25.111 106.758 23.538 36.24 73.039 47.15 110.566 24.35 112.074-68.052 256.448-68.069 368.589 0 37.527 22.8 87.012 11.891 110.599-24.35 23.603-36.161 12.319-83.957-25.144-106.758z" />
<glyph unicode="&#xe92c;" glyph-name="pay" d="M934.4 445.858c0 12.855 4.268 29.992 4.268 42.847 0 261.354-209.068 471.296-469.336 471.296-260.265 0-469.332-209.942-469.332-471.296 0-261.358 209.067-471.3 469.332-471.3 17.068 0 29.868 0 42.668 4.286l85.332-85.691 59.736 59.984-213.336 214.224c-81.065 85.691-81.065 218.511 0 304.201 42.668 38.561 98.136 59.984 153.6 59.984 55.468 0 110.936-21.424 149.336-64.271l213.332-214.224 64 64.267-89.6 85.691zM806.4 574.396c-55.468 55.698-128 85.689-209.068 85.689-81.064 0-153.6-29.991-213.332-85.689-115.2-115.683-115.2-308.487 0-424.17l42.668-42.843c-192.001 21.424-341.335 184.236-341.335 381.323 0 214.225 170.667 385.605 383.999 385.605 196.268 0 362.668-149.958 379.736-347.045l-42.668 47.13zM477.868 480.136c-34.136-29.992-51.2-72.839-51.2-119.969s17.064-89.973 51.2-119.965l89.6-89.977 243.2 244.22-89.6 89.973c-68.268 59.984-179.2 59.984-243.2-4.283zM567.468 270.194l-29.868 29.992c-17.068 17.137-25.6 38.561-25.6 59.981 0 21.424 8.532 42.847 25.6 59.984s38.4 25.706 59.732 25.706c21.336 0 42.668-8.569 59.736-25.706l29.864-29.992-119.464-119.965z" />
<glyph unicode="&#xe92d;" glyph-name="logout2" horiz-adv-x="814" d="M564.382-64h-419.84c-79.557 0-144.542 64.591-144.542 144.542v734.917c0 79.557 64.985 144.542 144.542 144.542h420.234c21.662 0 39.385-17.723 39.385-39.385s-17.723-39.385-39.385-39.385h-420.234c-36.234 0-65.772-29.538-65.772-65.772v-735.311c0-36.234 29.538-65.772 65.772-65.772h420.234c21.662 0 39.385-17.723 39.385-39.385s-17.723-39.385-39.385-39.385zM564.382 198.695c-10.24 0-20.086 3.938-27.963 11.422-15.36 15.36-15.36 40.172 0 55.532l142.966 142.966h-430.080c-21.662 0-39.385 17.723-39.385 39.385s17.723 39.385 39.385 39.385h430.080l-142.966 142.966c-15.36 15.36-15.36 40.172 0 55.532s40.172 15.36 55.532 0l209.92-209.92s0 0 0 0c3.545-3.545 5.908-7.089 7.877-11.422v0s0 0 0 0c0 0 0 0 0 0v0s0-0.788 0.394-1.182c1.969-4.332 2.757-9.058 3.151-14.178v0-1.969c0-5.12-1.182-9.846-2.757-14.178-1.969-4.726-4.726-9.058-8.271-12.603v0s0 0 0 0c0 0 0 0 0 0v0l-209.92-209.92c-7.877-7.877-17.723-11.422-27.963-11.422z" />
<glyph unicode="&#xe92e;" glyph-name="alert" horiz-adv-x="288" d="M16 64c0 70.694 57.308 128 128 128s128-57.306 128-128c0-70.694-57.308-128-128-128s-128 57.306-128 128zM28.539 832.635c-6.819 68.193 46.731 127.365 115.264 127.365s122.083-59.172 115.263-127.364l-44.895-448.953c-3.615-36.152-34.036-63.683-70.368-63.683s-66.753 27.531-70.368 63.683l-44.895 448.952z" />
<glyph unicode="&#xe92f;" glyph-name="alert-triangle" d="M574.705 859.669c-28.403 48.326-97.008 48.326-125.411 0l-438.76-746.522c-29.245-49.757 5.865-113.060 62.705-113.060h877.52c56.84 0 91.95 63.303 62.708 113.060l-438.762 746.522zM511.901 639.963c34.259 0 61.029-29.58 57.621-63.67l-22.444-224.432c-1.807-18.072-17.015-31.835-35.177-31.835s-33.37 13.763-35.177 31.835l-22.444 224.432c-3.408 34.090 23.361 63.67 57.621 63.67zM511.999 256.037c35.34 0 63.988-28.647 63.988-63.988s-28.648-63.988-63.988-63.988c-35.339 0-63.988 28.647-63.988 63.988s28.649 63.988 63.988 63.988z" />
</font>
</defs>
</svg>
